  0
SECTION
  2
HEADER
  9
$ACADVER
  1
AC1015
  9
$ACADMAINTVER
 70
     6
  9
$DWGCODEPAGE
  3
ANSI_1252
  9
$INSBASE
 10
0.0
 20
0.0
 30
0.0
  9
$EXTMIN
 10
-0.939693
 20
-0.984808
 30
0.0
  9
$EXTMAX
 10
13.0
 20
12.984808
 30
0.0
  9
$LIMMIN
 10
0.0
 20
0.0
  9
$LIMMAX
 10
0.0
 20
0.0
  9
$ORTHOMODE
 70
     0
  9
$REGENMODE
 70
     1
  9
$FILLMODE
 70
     1
  9
$QTEXTMODE
 70
     0
  9
$MIRRTEXT
 70
     1
  9
$LTSCALE
 40
1.0
  9
$ATTMODE
 70
     1
  9
$TEXTSIZE
 40
0.2
  9
$TRACEWID
 40
0.05
  9
$TEXTSTYLE
  7
Standard
  9
$CLAYER
  8
0
  9
$CELTYPE
  6
Continuous
  9
$CECOLOR
 62
   256
  9
$CELTSCALE
 40
1.0
  9
$DISPSILH
 70
     0
  9
$DIMSCALE
 40
1.0
  9
$DIMASZ
 40
0.18
  9
$DIMEXO
 40
0.0625
  9
$DIMDLI
 40
0.38
  9
$DIMRND
 40
0.0
  9
$DIMDLE
 40
0.0
  9
$DIMEXE
 40
0.18
  9
$DIMTP
 40
0.0
  9
$DIMTM
 40
0.0
  9
$DIMTXT
 40
0.18
  9
$DIMCEN
 40
0.09
  9
$DIMTSZ
 40
0.0
  9
$DIMTOL
 70
     0
  9
$DIMLIM
 70
     0
  9
$DIMTIH
 70
     1
  9
$DIMTOH
 70
     1
  9
$DIMSE1
 70
     0
  9
$DIMSE2
 70
     0
  9
$DIMTAD
 70
     0
  9
$DIMZIN
 70
     0
  9
$DIMBLK
  1

  9
$DIMASO
 70
     1
  9
$DIMSHO
 70
     1
  9
$DIMPOST
  1

  9
$DIMAPOST
  1

  9
$DIMALT
 70
     0
  9
$DIMALTD
 70
     2
  9
$DIMALTF
 40
25.4
  9
$DIMLFAC
 40
1.0
  9
$DIMTOFL
 70
     0
  9
$DIMTVP
 40
0.0
  9
$DIMTIX
 70
     0
  9
$DIMSOXD
 70
     0
  9
$DIMSAH
 70
     0
  9
$DIMBLK1
  1

  9
$DIMBLK2
  1

  9
$DIMSTYLE
  2
Standard
  9
$DIMCLRD
 70
     0
  9
$DIMCLRE
 70
     0
  9
$DIMCLRT
 70
     0
  9
$DIMTFAC
 40
1.0
  9
$DIMGAP
 40
0.09
  9
$DIMJUST
 70
     0
  9
$DIMSD1
 70
     0
  9
$DIMSD2
 70
     0
  9
$DIMTOLJ
 70
     1
  9
$DIMTZIN
 70
     0
  9
$DIMALTZ
 70
     0
  9
$DIMALTTZ
 70
     0
  9
$DIMUPT
 70
     0
  9
$DIMDEC
 70
     4
  9
$DIMTDEC
 70
     4
  9
$DIMALTU
 70
     2
  9
$DIMALTTD
 70
     2
  9
$DIMTXSTY
  7
Standard
  9
$DIMAUNIT
 70
     0
  9
$DIMADEC
 70
     0
  9
$DIMALTRND
 40
0.0
  9
$DIMAZIN
 70
     0
  9
$DIMDSEP
 70
    46
  9
$DIMATFIT
 70
     3
  9
$DIMFRAC
 70
     0
  9
$DIMLDRBLK
  1

  9
$DIMLUNIT
 70
     2
  9
$DIMLWD
 70
    -2
  9
$DIMLWE
 70
    -2
  9
$DIMTMOVE
 70
     0
  9
$LUNITS
 70
     2
  9
$LUPREC
 70
     4
  9
$SKETCHINC
 40
0.1
  9
$FILLETRAD
 40
0.0
  9
$AUNITS
 70
     0
  9
$AUPREC
 70
     0
  9
$MENU
  1
acad
  9
$ELEVATION
 40
0.0
  9
$PELEVATION
 40
0.0
  9
$THICKNESS
 40
0.0
  9
$LIMCHECK
 70
     0
  9
$CHAMFERA
 40
0.0
  9
$CHAMFERB
 40
0.0
  9
$CHAMFERC
 40
0.0
  9
$CHAMFERD
 40
0.0
  9
$SKPOLY
 70
     0
  9
$TDCREATE
 40
2455689.474745370
  9
$TDUCREATE
 40
0.000000000
  9
$TDUPDATE
 40
2455689.474745370
  9
$TDUUPDATE
 40
0.000000000
  9
$TDINDWG
 40
0.0000000000
  9
$TDUSRTIMER
 40
0.0000000000
  9
$USRTIMER
 70
     1
  9
$ANGBASE
 50
0.0
  9
$ANGDIR
 70
     0
  9
$PDMODE
 70
     0
  9
$PDSIZE
 40
0.0
  9
$PLINEWID
 40
0.0
  9
$SPLFRAME
 70
     0
  9
$SPLINETYPE
 70
     6
  9
$SPLINESEGS
 70
     8
  9
$HANDSEED
  5
D7
  9
$SURFTAB1
 70
     6
  9
$SURFTAB2
 70
     6
  9
$SURFTYPE
 70
     6
  9
$SURFU
 70
     6
  9
$SURFV
 70
     6
  9
$UCSBASE
  2

  9
$UCSNAME
  2

  9
$UCSORG
 10
0.0
 20
0.0
 30
0.0
  9
$UCSXDIR
 10
1.0
 20
0.0
 30
0.0
  9
$UCSYDIR
 10
0.0
 20
1.0
 30
0.0
  9
$UCSORTHOREF
  2

  9
$UCSORTHOVIEW
 70
     0
  9
$UCSORGTOP
 10
0.0
 20
0.0
 30
0.0
  9
$UCSORGBOTTOM
 10
0.0
 20
0.0
 30
0.0
  9
$UCSORGLEFT
 10
0.0
 20
0.0
 30
0.0
  9
$UCSORGRIGHT
 10
0.0
 20
0.0
 30
0.0
  9
$UCSORGFRONT
 10
0.0
 20
0.0
 30
0.0
  9
$UCSORGBACK
 10
0.0
 20
0.0
 30
0.0
  9
$PUCSBASE
  2

  9
$PUCSNAME
  2

  9
$PUCSORG
 10
0.0
 20
0.0
 30
0.0
  9
$PUCSXDIR
 10
1.0
 20
0.0
 30
0.0
  9
$PUCSYDIR
 10
0.0
 20
1.0
 30
0.0
  9
$PUCSORTHOREF
  2

  9
$PUCSORTHOVIEW
 70
     0
  9
$PUCSORGTOP
 10
0.0
 20
0.0
 30
0.0
  9
$PUCSORGBOTTOM
 10
0.0
 20
0.0
 30
0.0
  9
$PUCSORGLEFT
 10
0.0
 20
0.0
 30
0.0
  9
$PUCSORGRIGHT
 10
0.0
 20
0.0
 30
0.0
  9
$PUCSORGFRONT
 10
0.0
 20
0.0
 30
0.0
  9
$PUCSORGBACK
 10
0.0
 20
0.0
 30
0.0
  9
$USERI1
 70
     0
  9
$USERI2
 70
     0
  9
$USERI3
 70
     0
  9
$USERI4
 70
     0
  9
$USERI5
 70
     0
  9
$USERR1
 40
0.0
  9
$USERR2
 40
0.0
  9
$USERR3
 40
0.0
  9
$USERR4
 40
0.0
  9
$USERR5
 40
0.0
  9
$WORLDVIEW
 70
     1
  9
$SHADEDGE
 70
     3
  9
$SHADEDIF
 70
    70
  9
$TILEMODE
 70
     1
  9
$MAXACTVP
 70
    16
  9
$PINSBASE
 10
0.0
 20
0.0
 30
0.0
  9
$PLIMCHECK
 70
     0
  9
$PEXTMIN
 10
1.000000E+20
 20
1.000000E+20
 30
1.000000E+20
  9
$PEXTMAX
 10
-1.000000E+20
 20
-1.000000E+20
 30
-1.000000E+20
  9
$PLIMMIN
 10
0.0
 20
0.0
  9
$PLIMMAX
 10
12.0
 20
9.0
  9
$UNITMODE
 70
     0
  9
$VISRETAIN
 70
     0
  9
$PLINEGEN
 70
     1
  9
$PSLTSCALE
 70
     0
  9
$TREEDEPTH
 70
  3020
  9
$CMLSTYLE
  2
Standard
  9
$CMLJUST
 70
     0
  9
$CMLSCALE
 40
1.0
  9
$PROXYGRAPHICS
 70
     0
  9
$MEASUREMENT
 70
     0
  9
$CELWEIGHT
370
     0
  9
$ENDCAPS
280
     0
  9
$JOINSTYLE
280
     0
  9
$LWDISPLAY
290
     0
  9
$INSUNITS
 70
     0
  9
$HYPERLINKBASE
  1

  9
$STYLESHEET
  1

  9
$XEDIT
290
     1
  9
$CEPSNTYPE
380
     0
  9
$PSTYLEMODE
290
     1
  9
$FINGERPRINTGUID
  2

  9
$VERSIONGUID
  2

  9
$EXTNAMES
290
     1
  9
$PSVPSCALE
 40
0.0
  0
ENDSEC
  0
SECTION
  2
CLASSES
  0
CLASS
  1
LWPOLYLINE
  2
AcDbPolyline
  3
AutoCAD 2000
 90
        0
280
     0
281
     1
  0
CLASS
  1
IMAGE
  2
AcDbRasterImage
  3
ISM
 90
      127
280
     0
281
     1
  0
CLASS
  1
OLE2FRAME
  2
AcDbOle2Frame
  3
AutoCAD 2000
 90
        0
280
     0
281
     1
  0
CLASS
  1
HATCH
  2
AcDbHatch
  3
AutoCAD 2000
 90
        0
280
     0
281
     1
  0
CLASS
  1
DICTIONARYVAR
  2
AcDbDictionaryVar
  3
AutoCAD 2000
 90
        0
280
     0
281
     0
  0
CLASS
  1
RASTERVARIABLES
  2
AcDbRasterVariables
  3
ISM
 90
        0
280
     0
281
     0
  0
CLASS
  1
IMAGEDEF
  2
AcDbRasterImageDef
  3
ISM
 90
        0
280
     0
281
     0
  0
CLASS
  1
IMAGEDEF_REACTOR
  2
AcDbRasterImageDefReactor
  3
ISM
 90
        1
280
     0
281
     0
  0
CLASS
  1
IDBUFFER
  2
AcDbIdBuffer
  3
AutoCAD 2000
 90
        0
280
     0
281
     0
  0
CLASS
  1
SPATIAL_FILTER
  2
AcDbSpatialFilter
  3
AutoCAD 2000
 90
        0
280
     0
281
     0
  0
CLASS
  1
XRECORD
  2
AcDbXrecord
  3
AutoCAD 2000
 90
        0
280
     0
281
     0
  0
CLASS
  1
SORTENTSTABLE
  2
AcDbSortentsTable
  3
AutoCAD 2000
 90
        0
280
     0
281
     0
  0
CLASS
  1
LAYER_INDEX
  2
AcDbLayerIndex
  3
AutoCAD 2000
 90
        0
280
     0
281
     0
  0
CLASS
  1
SPATIAL_INDEX
  2
AcDbSpatialIndex
  3
AutoCAD 2000
 90
        0
280
     0
281
     0
  0
CLASS
  1
OBJECT_PTR
  2
CAseDLPNTableRecord
  3
"ASE-LPNTableRecord"
 90
        1
280
     0
281
     0
  0
CLASS
  1
LAYOUT
  2
AcDbLayout
  3
AutoCAD 2000
 90
        0
280
     0
281
     0
  0
CLASS
  1
PLOTSETTINGS
  2
AcDbPlotSettings
  3
AutoCAD 2000
 90
        0
280
     0
281
     0
  0
CLASS
  1
ACDBDICTIONARYWDFLT
  2
AcDbDictionaryWithDefault
  3
AutoCAD 2000
 90
        0
280
     0
281
     0
  0
CLASS
  1
ACDBPLACEHOLDER
  2
AcDbPlaceHolder
  3
AutoCAD 2000
 90
        0
280
     0
281
     0
  0
CLASS
  1
VBA_PROJECT
  2
AcDbVbaProject
  3
acadvba
 90
        0
280
     0
281
     0
  0
CLASS
  1
WIPEOUT
  2
AcDbWipeout
  3
WipeOut|AutoCAD Express Tool|expresstools@autodesk.com
 90
      127
280
     0
281
     1
  0
CLASS
  1
WIPEOUTVARIABLES
  2
AcDbWipeoutVariables
  3
WipeOut|AutoCAD Express Tool|expresstools@autodesk.com
 90
        0
280
     0
281
     0
  0
CLASS
  1
RTEXT
  2
RText
  3
RText|AutoCAD Express Tool|expresstools@autodesk.com
 90
        0
280
     0
281
     1
  0
CLASS
  1
ARCALIGNEDTEXT
  2
AcDbArcAlignedText
  3
ATEXT|AutoCAD Express Tool|expresstools@autodesk.com
 90
        0
280
     0
281
     1
  0
ENDSEC
  0
SECTION
  2
TABLES
  0
TABLE
  2
VPORT
  5
7
100
AcDbSymbolTable
 70
     1
  0
VPORT
  5
15
100
AcDbSymbolTableRecord
100
AcDbViewportTableRecord
  2
*ACTIVE
 70
     0
 10
0.0
 20
0.0
 11
1.0
 21
1.0
 12
6.591288
 22
4.579184
 13
0.0
 23
0.0
 14
1.0
 24
1.0
 15
0.0
 25
0.0
 16
0.0
 26
0.0
 36
1.0
 17
0.0
 27
0.0
 37
0.0
 40
9.158369
 41
0.688564
 42
50.0
 43
0.0
 44
0.0
 50
0.0
 51
0.0
 71
     0
 72
   100
 73
     1
 74
     1
 75
     0
 76
     0
 77
     0
 78
     0
281
     0
 65
     0
110
0.0
120
0.0
130
0.0
111
1.0
121
0.0
131
0.0
112
0.0
122
1.0
132
0.0
345
0
346
0
 79
     0
146
0.0
  0
ENDTAB
  0
TABLE
  2
LTYPE
  5
4
100
AcDbSymbolTable
 70
     6
  0
LTYPE
  5
11
100
AcDbSymbolTableRecord
100
AcDbLinetypeTableRecord
  2
ByBlock
 70
    64
  3

 72
    65
 73
     0
 40
0.0
  0
LTYPE
  5
12
100
AcDbSymbolTableRecord
100
AcDbLinetypeTableRecord
  2
ByLayer
 70
    64
  3

 72
    65
 73
     0
 40
0.0
  0
LTYPE
  5
13
100
AcDbSymbolTableRecord
100
AcDbLinetypeTableRecord
  2
Continuous
 70
    64
  3
Solid line
 72
    65
 73
     0
 40
0.0
  0
LTYPE
  5
24
100
AcDbSymbolTableRecord
100
AcDbLinetypeTableRecord
  2
solid
 70
    64
  3

 72
    65
 73
     0
 40
0.0
  0
LTYPE
  5
25
100
AcDbSymbolTableRecord
100
AcDbLinetypeTableRecord
  2
dashed
 70
    64
  3

 72
    65
 73
     0
 40
0.0
  0
LTYPE
  5
26
100
AcDbSymbolTableRecord
100
AcDbLinetypeTableRecord
  2
center
 70
    64
  3

 72
    65
 73
     0
 40
0.0
  0
ENDTAB
  0
TABLE
  2
LAYER
  5
2
100
AcDbSymbolTable
 70
     2
  0
LAYER
  5
14
100
AcDbSymbolTableRecord
100
AcDbLayerTableRecord
  2
0
 70
     0
 62
     7
  6
Continuous
290
     1
370
    -3
390
1D
  0
LAYER
  5
27
100
AcDbSymbolTableRecord
100
AcDbLayerTableRecord
  2
1
 70
     0
 62
     1
  6
solid
290
     1
370
    -3
390
1D
  0
ENDTAB
  0
TABLE
  2
STYLE
  5
3
100
AcDbSymbolTable
 70
     1
  0
STYLE
  5
17
100
AcDbSymbolTableRecord
100
AcDbTextStyleTableRecord
  2
Standard
 70
     0
 40
0.0
 41
1.0
 50
0.0
 71
     0
 42
0.0
  3
txt
  4

  0
ENDTAB
  0
TABLE
  2
VIEW
  5
5
100
AcDbSymbolTable
 70
     0
  0
ENDTAB
  0
TABLE
  2
UCS
  5
6
100
AcDbSymbolTable
 70
     0
  0
ENDTAB
  0
TABLE
  2
APPID
  5
8
100
AcDbSymbolTable
 70
     1
  0
APPID
  5
16
100
AcDbSymbolTableRecord
100
AcDbRegAppTableRecord
  2
ACAD
 70
     0
  0
ENDTAB
  0
TABLE
  2
DIMSTYLE
  5
9
100
AcDbSymbolTable
 70
     1
100
AcDbDimStyleTable
 71
     0
  0
DIMSTYLE
105
18
100
AcDbSymbolTableRecord
100
AcDbDimStyleTableRecord
  2
Standard
 70
     0
  3

  4

 40
1.0
 41
0.18
 42
0.0625
 43
0.38
 44
0.18
 45
0.0
 46
0.0
 47
0.0
 48
0.0
 71
     0
 72
     0
 73
     1
 74
     1
 75
     0
 76
     0
 77
     0
 78
     0
 79
     0
140
0.18
141
0.09
142
0.0
143
25.4
144
1.0
145
0.0
146
1.0
147
0.09
148
0.0
170
     0
171
     2
172
     0
173
     0
174
     0
175
     0
176
     0
177
     0
178
     0
179
     0
271
     4
272
     4
273
     2
274
     2
275
     0
276
     0
277
     2
278
    46
279
     0
280
     0
281
     0
282
     0
283
     1
284
     0
285
     0
286
     0
288
     0
289
     3
340
17
341
0
342
0
343
0
344
0
371
    -2
372
    -2
  0
ENDTAB
  0
TABLE
  2
BLOCK_RECORD
  5
1
100
AcDbSymbolTable
 70
    20
  0
BLOCK_RECORD
  5
A
100
AcDbSymbolTableRecord
100
AcDbBlockTableRecord
  2
*MODEL_SPACE
340
20
  0
BLOCK_RECORD
  5
B
100
AcDbSymbolTableRecord
100
AcDbBlockTableRecord
  2
*PAPER_SPACE
340
21
  0
BLOCK_RECORD
  5
46
100
AcDbSymbolTableRecord
100
AcDbBlockTableRecord
  2
*D0
340
0
  0
BLOCK_RECORD
  5
4C
100
AcDbSymbolTableRecord
100
AcDbBlockTableRecord
  2
*D1
340
0
  0
BLOCK_RECORD
  5
54
100
AcDbSymbolTableRecord
100
AcDbBlockTableRecord
  2
*D2
340
0
  0
BLOCK_RECORD
  5
5C
100
AcDbSymbolTableRecord
100
AcDbBlockTableRecord
  2
*D3
340
0
  0
BLOCK_RECORD
  5
62
100
AcDbSymbolTableRecord
100
AcDbBlockTableRecord
  2
*D4
340
0
  0
BLOCK_RECORD
  5
68
100
AcDbSymbolTableRecord
100
AcDbBlockTableRecord
  2
*D5
340
0
  0
BLOCK_RECORD
  5
70
100
AcDbSymbolTableRecord
100
AcDbBlockTableRecord
  2
*D6
340
0
  0
BLOCK_RECORD
  5
78
100
AcDbSymbolTableRecord
100
AcDbBlockTableRecord
  2
*D7
340
0
  0
BLOCK_RECORD
  5
80
100
AcDbSymbolTableRecord
100
AcDbBlockTableRecord
  2
*D8
340
0
  0
BLOCK_RECORD
  5
86
100
AcDbSymbolTableRecord
100
AcDbBlockTableRecord
  2
*D9
340
0
  0
BLOCK_RECORD
  5
8C
100
AcDbSymbolTableRecord
100
AcDbBlockTableRecord
  2
*D10
340
0
  0
BLOCK_RECORD
  5
94
100
AcDbSymbolTableRecord
100
AcDbBlockTableRecord
  2
*D11
340
0
  0
BLOCK_RECORD
  5
9A
100
AcDbSymbolTableRecord
100
AcDbBlockTableRecord
  2
*D12
340
0
  0
BLOCK_RECORD
  5
A0
100
AcDbSymbolTableRecord
100
AcDbBlockTableRecord
  2
*D13
340
0
  0
BLOCK_RECORD
  5
A6
100
AcDbSymbolTableRecord
100
AcDbBlockTableRecord
  2
*D14
340
0
  0
BLOCK_RECORD
  5
AF
100
AcDbSymbolTableRecord
100
AcDbBlockTableRecord
  2
*D15
340
0
  0
BLOCK_RECORD
  5
B8
100
AcDbSymbolTableRecord
100
AcDbBlockTableRecord
  2
*D16
340
0
  0
BLOCK_RECORD
  5
C1
100
AcDbSymbolTableRecord
100
AcDbBlockTableRecord
  2
*D17
340
0
  0
BLOCK_RECORD
  5
C9
100
AcDbSymbolTableRecord
100
AcDbBlockTableRecord
  2
*D18
340
0
  0
BLOCK_RECORD
  5
D1
100
AcDbSymbolTableRecord
100
AcDbBlockTableRecord
  2
*D19
340
0
  0
ENDTAB
  0
ENDSEC
  0
SECTION
  2
BLOCKS
  0
BLOCK
  5
D
100
AcDbEntity
  8
0
390
0
100
AcDbBlockBegin
  2
*MODEL_SPACE
 70
     0
 10
0.0
 20
0.0
 30
0.0
  3
*MODEL_SPACE
  1

  0
ENDBLK
  5
E
100
AcDbEntity
  8
0
390
0
100
AcDbBlockEnd
  0
BLOCK
  5
F
100
AcDbEntity
 67
     1
  8
0
390
0
100
AcDbBlockBegin
  2
*PAPER_SPACE
 70
     0
 10
0.0
 20
0.0
 30
0.0
  3
*PAPER_SPACE
  1

  0
ENDBLK
  5
10
100
AcDbEntity
 67
     1
  8
0
390
0
100
AcDbBlockEnd
  0
BLOCK
  5
47
100
AcDbEntity
  8
1
390
0
  6
solid
 62
     1
100
AcDbBlockBegin
  2
*D0
 70
     0
 10
0.0
 20
0.0
 30
0.0
  3
*D0
  1

  0
LINE
  5
48
100
AcDbEntity
  8
1
390
0
  6
solid
 62
     1
100
AcDbLine
 10
1.75
 20
-2.875
 30
0.0
 11
2.766434
 21
-2.875
 31
0.0
210
0.0
220
0.0
230
1.0
  0
MTEXT
  5
49
100
AcDbEntity
  8
1
390
0
  6
solid
 62
     1
100
AcDbMText
 10
2.961434
 20
-2.875
 30
0.0
 40
0.1
 41
0.0
 71
     5
 72
     1
  1
{\H0.100000;0.000}
210
0.0
220
0.0
230
1.0
 73
     1
 44
1.0
  0
ENDBLK
  5
4A
100
AcDbEntity
  8
1
390
0
  6
solid
 62
     1
100
AcDbBlockEnd
  0
BLOCK
  5
4D
100
AcDbEntity
  8
1
390
0
  6
solid
 62
     1
100
AcDbBlockBegin
  2
*D1
 70
     0
 10
0.0
 20
0.0
 30
0.0
  3
*D1
  1

  0
LINE
  5
4E
100
AcDbEntity
  8
1
390
0
  6
solid
 62
     1
100
AcDbLine
 10
0.8775
 20
-2.7575
 30
0.0
 11
2.551724
 21
-2.7575
 31
0.0
210
0.0
220
0.0
230
1.0
  0
LINE
  5
4F
100
AcDbEntity
  8
1
390
0
  6
solid
 62
     1
100
AcDbLine
 10
2.551724
 20
-2.7575
 30
0.0
 11
2.694864
 21
-2.658746
 31
0.0
210
0.0
220
0.0
230
1.0
  0
LINE
  5
50
100
AcDbEntity
  8
1
390
0
  6
solid
 62
     1
100
AcDbLine
 10
2.694864
 20
-2.658746
 30
0.0
 11
2.766434
 21
-2.658746
 31
0.0
210
0.0
220
0.0
230
1.0
  0
MTEXT
  5
51
100
AcDbEntity
  8
1
390
0
  6
solid
 62
     1
100
AcDbMText
 10
2.961434
 20
-2.658746
 30
0.0
 40
0.1
 41
0.0
 71
     5
 72
     1
  1
{\H0.100000;0.118}
210
0.0
220
0.0
230
1.0
 73
     1
 44
1.0
  0
ENDBLK
  5
52
100
AcDbEntity
  8
1
390
0
  6
solid
 62
     1
100
AcDbBlockEnd
  0
BLOCK
  5
55
100
AcDbEntity
  8
1
390
0
  6
solid
 62
     1
100
AcDbBlockBegin
  2
*D2
 70
     0
 10
0.0
 20
0.0
 30
0.0
  3
*D2
  1

  0
LINE
  5
56
100
AcDbEntity
  8
1
390
0
  6
solid
 62
     1
100
AcDbLine
 10
1.425
 20
-2.496
 30
0.0
 11
2.551724
 21
-2.496
 31
0.0
210
0.0
220
0.0
230
1.0
  0
LINE
  5
57
100
AcDbEntity
  8
1
390
0
  6
solid
 62
     1
100
AcDbLine
 10
2.551724
 20
-2.496
 30
0.0
 11
2.694864
 21
-2.390439
 31
0.0
210
0.0
220
0.0
230
1.0
  0
LINE
  5
58
100
AcDbEntity
  8
1
390
0
  6
solid
 62
     1
100
AcDbLine
 10
2.694864
 20
-2.390439
 30
0.0
 11
2.766434
 21
-2.390439
 31
0.0
210
0.0
220
0.0
230
1.0
  0
MTEXT
  5
59
100
AcDbEntity
  8
1
390
0
  6
solid
 62
     1
100
AcDbMText
 10
2.961434
 20
-2.390439
 30
0.0
 40
0.1
 41
0.0
 71
     5
 72
     1
  1
{\H0.100000;0.379}
210
0.0
220
0.0
230
1.0
 73
     1
 44
1.0
  0
ENDBLK
  5
5A
100
AcDbEntity
  8
1
390
0
  6
solid
 62
     1
100
AcDbBlockEnd
  0
BLOCK
  5
5D
100
AcDbEntity
  8
1
390
0
  6
solid
 62
     1
100
AcDbBlockBegin
  2
*D3
 70
     0
 10
0.0
 20
0.0
 30
0.0
  3
*D3
  1

  0
LINE
  5
5E
100
AcDbEntity
  8
1
390
0
  6
solid
 62
     1
100
AcDbLine
 10
0.0
 20
0.0
 30
0.0
 11
2.766434
 21
0.0
 31
0.0
210
0.0
220
0.0
230
1.0
  0
MTEXT
  5
5F
100
AcDbEntity
  8
1
390
0
  6
solid
 62
     1
100
AcDbMText
 10
2.961434
 20
0.0
 30
0.0
 40
0.1
 41
0.0
 71
     5
 72
     1
  1
{\H0.100000;2.875}
210
0.0
220
0.0
230
1.0
 73
     1
 44
1.0
  0
ENDBLK
  5
60
100
AcDbEntity
  8
1
390
0
  6
solid
 62
     1
100
AcDbBlockEnd
  0
BLOCK
  5
63
100
AcDbEntity
  8
1
390
0
  6
solid
 62
     1
100
AcDbBlockBegin
  2
*D4
 70
     0
 10
0.0
 20
0.0
 30
0.0
  3
*D4
  1

  0
LINE
  5
64
100
AcDbEntity
  8
1
390
0
  6
solid
 62
     1
100
AcDbLine
 10
1.75
 20
-2.875
 30
0.0
 11
1.75
 21
-3.382035
 31
0.0
210
0.0
220
0.0
230
1.0
  0
MTEXT
  5
65
100
AcDbEntity
  8
1
390
0
  6
solid
 62
     1
100
AcDbMText
 10
1.75
 20
-3.577035
 30
0.0
 40
0.1
 41
0.0
 71
     5
 72
     1
  1
{\H0.100000;0.000}
210
0.0
220
0.0
230
1.0
 11
0.0
 21
1.0
 31
0.0
 73
     1
 44
1.0
  0
ENDBLK
  5
66
100
AcDbEntity
  8
1
390
0
  6
solid
 62
     1
100
AcDbBlockEnd
  0
BLOCK
  5
69
100
AcDbEntity
  8
1
390
0
  6
solid
 62
     1
100
AcDbBlockBegin
  2
*D5
 70
     0
 10
0.0
 20
0.0
 30
0.0
  3
*D5
  1

  0
LINE
  5
6A
100
AcDbEntity
  8
1
390
0
  6
solid
 62
     1
100
AcDbLine
 10
1.425
 20
-2.496
 30
0.0
 11
1.425
 21
-3.167325
 31
0.0
210
0.0
220
0.0
230
1.0
  0
LINE
  5
6B
100
AcDbEntity
  8
1
390
0
  6
solid
 62
     1
100
AcDbLine
 10
1.425
 20
-3.167325
 30
0.0
 11
1.564337
 21
-3.310465
 31
0.0
210
0.0
220
0.0
230
1.0
  0
LINE
  5
6C
100
AcDbEntity
  8
1
390
0
  6
solid
 62
     1
100
AcDbLine
 10
1.564337
 20
-3.310465
 30
0.0
 11
1.564337
 21
-3.382035
 31
0.0
210
0.0
220
0.0
230
1.0
  0
MTEXT
  5
6D
100
AcDbEntity
  8
1
390
0
  6
solid
 62
     1
100
AcDbMText
 10
1.564337
 20
-3.577035
 30
0.0
 40
0.1
 41
0.0
 71
     5
 72
     1
  1
{\H0.100000;0.325}
210
0.0
220
0.0
230
1.0
 11
0.0
 21
1.0
 31
0.0
 73
     1
 44
1.0
  0
ENDBLK
  5
6E
100
AcDbEntity
  8
1
390
0
  6
solid
 62
     1
100
AcDbBlockEnd
  0
BLOCK
  5
71
100
AcDbEntity
  8
1
390
0
  6
solid
 62
     1
100
AcDbBlockBegin
  2
*D6
 70
     0
 10
0.0
 20
0.0
 30
0.0
  3
*D6
  1

  0
LINE
  5
72
100
AcDbEntity
  8
1
390
0
  6
solid
 62
     1
100
AcDbLine
 10
1.115
 20
-2.496
 30
0.0
 11
1.115
 21
-3.167325
 31
0.0
210
0.0
220
0.0
230
1.0
  0
LINE
  5
73
100
AcDbEntity
  8
1
390
0
  6
solid
 62
     1
100
AcDbLine
 10
1.115
 20
-3.167325
 30
0.0
 11
1.296031
 21
-3.310465
 31
0.0
210
0.0
220
0.0
230
1.0
  0
LINE
  5
74
100
AcDbEntity
  8
1
390
0
  6
solid
 62
     1
100
AcDbLine
 10
1.296031
 20
-3.310465
 30
0.0
 11
1.296031
 21
-3.382035
 31
0.0
210
0.0
220
0.0
230
1.0
  0
MTEXT
  5
75
100
AcDbEntity
  8
1
390
0
  6
solid
 62
     1
100
AcDbMText
 10
1.296031
 20
-3.577035
 30
0.0
 40
0.1
 41
0.0
 71
     5
 72
     1
  1
{\H0.100000;0.635}
210
0.0
220
0.0
230
1.0
 11
0.0
 21
1.0
 31
0.0
 73
     1
 44
1.0
  0
ENDBLK
  5
76
100
AcDbEntity
  8
1
390
0
  6
solid
 62
     1
100
AcDbBlockEnd
  0
BLOCK
  5
79
100
AcDbEntity
  8
1
390
0
  6
solid
 62
     1
100
AcDbBlockBegin
  2
*D7
 70
     0
 10
0.0
 20
0.0
 30
0.0
  3
*D7
  1

  0
LINE
  5
7A
100
AcDbEntity
  8
1
390
0
  6
solid
 62
     1
100
AcDbLine
 10
0.95
 20
-2.875
 30
0.0
 11
0.95
 21
-3.167325
 31
0.0
210
0.0
220
0.0
230
1.0
  0
LINE
  5
7B
100
AcDbEntity
  8
1
390
0
  6
solid
 62
     1
100
AcDbLine
 10
0.95
 20
-3.167325
 30
0.0
 11
1.067473
 21
-3.310465
 31
0.0
210
0.0
220
0.0
230
1.0
  0
LINE
  5
7C
100
AcDbEntity
  8
1
390
0
  6
solid
 62
     1
100
AcDbLine
 10
1.067473
 20
-3.310465
 30
0.0
 11
1.067473
 21
-3.382035
 31
0.0
210
0.0
220
0.0
230
1.0
  0
MTEXT
  5
7D
100
AcDbEntity
  8
1
390
0
  6
solid
 62
     1
100
AcDbMText
 10
1.067473
 20
-3.577035
 30
0.0
 40
0.1
 41
0.0
 71
     5
 72
     1
  1
{\H0.100000;0.800}
210
0.0
220
0.0
230
1.0
 11
0.0
 21
1.0
 31
0.0
 73
     1
 44
1.0
  0
ENDBLK
  5
7E
100
AcDbEntity
  8
1
390
0
  6
solid
 62
     1
100
AcDbBlockEnd
  0
BLOCK
  5
81
100
AcDbEntity
  8
1
390
0
  6
solid
 62
     1
100
AcDbBlockBegin
  2
*D8
 70
     0
 10
0.0
 20
0.0
 30
0.0
  3
*D8
  1

  0
LINE
  5
82
100
AcDbEntity
  8
1
390
0
  6
solid
 62
     1
100
AcDbLine
 10
0.805
 20
-2.875
 30
0.0
 11
0.805
 21
-3.382035
 31
0.0
210
0.0
220
0.0
230
1.0
  0
MTEXT
  5
83
100
AcDbEntity
  8
1
390
0
  6
solid
 62
     1
100
AcDbMText
 10
0.805
 20
-3.577035
 30
0.0
 40
0.1
 41
0.0
 71
     5
 72
     1
  1
{\H0.100000;0.945}
210
0.0
220
0.0
230
1.0
 11
0.0
 21
1.0
 31
0.0
 73
     1
 44
1.0
  0
ENDBLK
  5
84
100
AcDbEntity
  8
1
390
0
  6
solid
 62
     1
100
AcDbBlockEnd
  0
BLOCK
  5
87
100
AcDbEntity
  8
1
390
0
  6
solid
 62
     1
100
AcDbBlockBegin
  2
*D9
 70
     0
 10
0.0
 20
0.0
 30
0.0
  3
*D9
  1

  0
LINE
  5
88
100
AcDbEntity
  8
1
390
0
  6
solid
 62
     1
100
AcDbLine
 10
0.57
 20
-2.875
 30
0.0
 11
0.57
 21
-3.382035
 31
0.0
210
0.0
220
0.0
230
1.0
  0
MTEXT
  5
89
100
AcDbEntity
  8
1
390
0
  6
solid
 62
     1
100
AcDbMText
 10
0.57
 20
-3.577035
 30
0.0
 40
0.1
 41
0.0
 71
     5
 72
     1
  1
{\H0.100000;1.180}
210
0.0
220
0.0
230
1.0
 11
0.0
 21
1.0
 31
0.0
 73
     1
 44
1.0
  0
ENDBLK
  5
8A
100
AcDbEntity
  8
1
390
0
  6
solid
 62
     1
100
AcDbBlockEnd
  0
BLOCK
  5
8D
100
AcDbEntity
  8
1
390
0
  6
solid
 62
     1
100
AcDbBlockBegin
  2
*D10
 70
     0
 10
0.0
 20
0.0
 30
0.0
  3
*D10
  1

  0
LINE
  5
8E
100
AcDbEntity
  8
1
390
0
  6
solid
 62
     1
100
AcDbLine
 10
0.425
 20
-2.875
 30
0.0
 11
0.425
 21
-3.167325
 31
0.0
210
0.0
220
0.0
230
1.0
  0
LINE
  5
8F
100
AcDbEntity
  8
1
390
0
  6
solid
 62
     1
100
AcDbLine
 10
0.425
 20
-3.167325
 30
0.0
 11
0.361927
 21
-3.310465
 31
0.0
210
0.0
220
0.0
230
1.0
  0
LINE
  5
90
100
AcDbEntity
  8
1
390
0
  6
solid
 62
     1
100
AcDbLine
 10
0.361927
 20
-3.310465
 30
0.0
 11
0.361927
 21
-3.382035
 31
0.0
210
0.0
220
0.0
230
1.0
  0
MTEXT
  5
91
100
AcDbEntity
  8
1
390
0
  6
solid
 62
     1
100
AcDbMText
 10
0.361927
 20
-3.577035
 30
0.0
 40
0.1
 41
0.0
 71
     5
 72
     1
  1
{\H0.100000;1.325}
210
0.0
220
0.0
230
1.0
 11
0.0
 21
1.0
 31
0.0
 73
     1
 44
1.0
  0
ENDBLK
  5
92
100
AcDbEntity
  8
1
390
0
  6
solid
 62
     1
100
AcDbBlockEnd
  0
BLOCK
  5
95
100
AcDbEntity
  8
1
390
0
  6
solid
 62
     1
100
AcDbBlockBegin
  2
*D11
 70
     0
 10
0.0
 20
0.0
 30
0.0
  3
*D11
  1

  0
LINE
  5
96
100
AcDbEntity
  8
1
390
0
  6
solid
 62
     1
100
AcDbLine
 10
-0.375
 20
-2.875
 30
0.0
 11
-0.375
 21
-3.382035
 31
0.0
210
0.0
220
0.0
230
1.0
  0
MTEXT
  5
97
100
AcDbEntity
  8
1
390
0
  6
solid
 62
     1
100
AcDbMText
 10
-0.375
 20
-3.577035
 30
0.0
 40
0.1
 41
0.0
 71
     5
 72
     1
  1
{\H0.100000;2.125}
210
0.0
220
0.0
230
1.0
 11
0.0
 21
1.0
 31
0.0
 73
     1
 44
1.0
  0
ENDBLK
  5
98
100
AcDbEntity
  8
1
390
0
  6
solid
 62
     1
100
AcDbBlockEnd
  0
BLOCK
  5
9B
100
AcDbEntity
  8
1
390
0
  6
solid
 62
     1
100
AcDbBlockBegin
  2
*D12
 70
     0
 10
0.0
 20
0.0
 30
0.0
  3
*D12
  1

  0
LINE
  5
9C
100
AcDbEntity
  8
1
390
0
  6
solid
 62
     1
100
AcDbLine
 10
0.155
 20
-2.496
 30
0.0
 11
0.155
 21
-3.382035
 31
0.0
210
0.0
220
0.0
230
1.0
  0
MTEXT
  5
9D
100
AcDbEntity
  8
1
390
0
  6
solid
 62
     1
100
AcDbMText
 10
0.155
 20
-3.577035
 30
0.0
 40
0.1
 41
0.0
 71
     5
 72
     1
  1
{\H0.100000;1.595}
210
0.0
220
0.0
230
1.0
 11
0.0
 21
1.0
 31
0.0
 73
     1
 44
1.0
  0
ENDBLK
  5
9E
100
AcDbEntity
  8
1
390
0
  6
solid
 62
     1
100
AcDbBlockEnd
  0
BLOCK
  5
A1
100
AcDbEntity
  8
1
390
0
  6
solid
 62
     1
100
AcDbBlockBegin
  2
*D13
 70
     0
 10
0.0
 20
0.0
 30
0.0
  3
*D13
  1

  0
LINE
  5
A2
100
AcDbEntity
  8
1
390
0
  6
solid
 62
     1
100
AcDbLine
 10
-0.155
 20
-2.496
 30
0.0
 11
-0.155
 21
-3.382035
 31
0.0
210
0.0
220
0.0
230
1.0
  0
MTEXT
  5
A3
100
AcDbEntity
  8
1
390
0
  6
solid
 62
     1
100
AcDbMText
 10
-0.155
 20
-3.577035
 30
0.0
 40
0.1
 41
0.0
 71
     5
 72
     1
  1
{\H0.100000;1.905}
210
0.0
220
0.0
230
1.0
 11
0.0
 21
1.0
 31
0.0
 73
     1
 44
1.0
  0
ENDBLK
  5
A4
100
AcDbEntity
  8
1
390
0
  6
solid
 62
     1
100
AcDbBlockEnd
  0
BLOCK
  5
A7
100
AcDbEntity
  8
1
390
0
  6
solid
 62
     1
100
AcDbBlockBegin
  2
*D14
 70
     0
 10
0.0
 20
0.0
 30
0.0
  3
*D14
  1

  0
LINE
  5
A8
100
AcDbEntity
  8
1
390
0
  6
solid
 62
     1
100
AcDbLine
 10
-0.076788
 20
0.171055
 30
0.0
 11
0.0
 21
0.0
 31
0.0
210
0.0
220
0.0
230
1.0
  0
LINE
  5
A9
100
AcDbEntity
  8
1
390
0
  6
solid
 62
     1
100
AcDbLine
 10
0.0
 20
0.0
 30
0.0
 11
-0.283034
 21
0.630493
 31
0.0
210
0.0
220
0.0
230
1.0
  0
LINE
  5
AA
100
AcDbEntity
  8
1
390
0
  6
solid
 62
     1
100
AcDbLine
 10
-0.283034
 20
0.630493
 30
0.0
 11
-0.483034
 21
0.630493
 31
0.0
210
0.0
220
0.0
230
1.0
  0
LINE
  5
AB
100
AcDbEntity
  8
1
390
0
  6
solid
 62
     1
100
AcDbLine
 10
0.076788
 20
-0.171055
 30
0.0
 11
0.0
 21
0.0
 31
0.0
210
0.0
220
0.0
230
1.0
  0
MTEXT
  5
AC
100
AcDbEntity
  8
1
390
0
  6
solid
 62
     1
100
AcDbMText
 10
-0.731174
 20
0.630493
 30
0.0
 40
0.1
 41
0.0
 71
     5
 72
     1
  1
{\H0.100000;%%C 0.375}
210
0.0
220
0.0
230
1.0
 73
     1
 44
1.0
  0
ENDBLK
  5
AD
100
AcDbEntity
  8
1
390
0
  6
solid
 62
     1
100
AcDbBlockEnd
  0
BLOCK
  5
B0
100
AcDbEntity
  8
1
390
0
  6
solid
 62
     1
100
AcDbBlockBegin
  2
*D15
 70
     0
 10
0.0
 20
0.0
 30
0.0
  3
*D15
  1

  0
LINE
  5
B1
100
AcDbEntity
  8
1
390
0
  6
solid
 62
     1
100
AcDbLine
 10
-0.242339
 20
-2.458624
 30
0.0
 11
-0.155
 21
-2.496
 31
0.0
210
0.0
220
0.0
230
1.0
  0
LINE
  5
B2
100
AcDbEntity
  8
1
390
0
  6
solid
 62
     1
100
AcDbLine
 10
-0.155
 20
-2.496
 30
0.0
 11
-0.819647
 21
-2.211568
 31
0.0
210
0.0
220
0.0
230
1.0
  0
LINE
  5
B3
100
AcDbEntity
  8
1
390
0
  6
solid
 62
     1
100
AcDbLine
 10
-0.819647
 20
-2.211568
 30
0.0
 11
-1.019647
 21
-2.211568
 31
0.0
210
0.0
220
0.0
230
1.0
  0
LINE
  5
B4
100
AcDbEntity
  8
1
390
0
  6
solid
 62
     1
100
AcDbLine
 10
-0.067661
 20
-2.533376
 30
0.0
 11
-0.155
 21
-2.496
 31
0.0
210
0.0
220
0.0
230
1.0
  0
MTEXT
  5
B5
100
AcDbEntity
  8
1
390
0
  6
solid
 62
     1
100
AcDbMText
 10
-1.267787
 20
-2.211568
 30
0.0
 40
0.1
 41
0.0
 71
     5
 72
     1
  1
{\H0.100000;%%C 0.190}
210
0.0
220
0.0
230
1.0
 73
     1
 44
1.0
  0
ENDBLK
  5
B6
100
AcDbEntity
  8
1
390
0
  6
solid
 62
     1
100
AcDbBlockEnd
  0
BLOCK
  5
B9
100
AcDbEntity
  8
1
390
0
  6
solid
 62
     1
100
AcDbBlockBegin
  2
*D16
 70
     0
 10
0.0
 20
0.0
 30
0.0
  3
*D16
  1

  0
LINE
  5
BA
100
AcDbEntity
  8
1
390
0
  6
solid
 62
     1
100
AcDbLine
 10
0.4975
 20
-2.685
 30
0.0
 11
0.4975
 21
-2.7575
 31
0.0
210
0.0
220
0.0
230
1.0
  0
LINE
  5
BB
100
AcDbEntity
  8
1
390
0
  6
solid
 62
     1
100
AcDbLine
 10
0.4975
 20
-2.7575
 30
0.0
 11
0.41065
 21
-2.002886
 31
0.0
210
0.0
220
0.0
230
1.0
  0
LINE
  5
BC
100
AcDbEntity
  8
1
390
0
  6
solid
 62
     1
100
AcDbLine
 10
0.41065
 20
-2.002886
 30
0.0
 11
0.61065
 21
-2.002886
 31
0.0
210
0.0
220
0.0
230
1.0
  0
LINE
  5
BD
100
AcDbEntity
  8
1
390
0
  6
solid
 62
     1
100
AcDbLine
 10
0.4975
 20
-2.83
 30
0.0
 11
0.4975
 21
-2.7575
 31
0.0
210
0.0
220
0.0
230
1.0
  0
MTEXT
  5
BE
100
AcDbEntity
  8
1
390
0
  6
solid
 62
     1
100
AcDbMText
 10
0.85879
 20
-2.002886
 30
0.0
 40
0.1
 41
0.0
 71
     5
 72
     1
  1
{\H0.100000;%%C 0.145}
210
0.0
220
0.0
230
1.0
 73
     1
 44
1.0
  0
ENDBLK
  5
BF
100
AcDbEntity
  8
1
390
0
  6
solid
 62
     1
100
AcDbBlockEnd
  0
BLOCK
  5
C2
100
AcDbEntity
  8
1
390
0
  6
solid
 62
     1
100
AcDbBlockBegin
  2
*D17
 70
     0
 10
0.0
 20
0.0
 30
0.0
  3
*D17
  1

  0
LINE
  5
C3
100
AcDbEntity
  8
1
390
0
  6
solid
 62
     1
100
AcDbLine
 10
1.425
 20
-2.401
 30
0.0
 11
2.551724
 21
-2.401
 31
0.0
210
0.0
220
0.0
230
1.0
  0
LINE
  5
C4
100
AcDbEntity
  8
1
390
0
  6
solid
 62
     1
100
AcDbLine
 10
2.551724
 20
-2.401
 30
0.0
 11
2.694864
 21
-2.161882
 31
0.0
210
0.0
220
0.0
230
1.0
  0
LINE
  5
C5
100
AcDbEntity
  8
1
390
0
  6
solid
 62
     1
100
AcDbLine
 10
2.694864
 20
-2.161882
 30
0.0
 11
2.766434
 21
-2.161882
 31
0.0
210
0.0
220
0.0
230
1.0
  0
MTEXT
  5
C6
100
AcDbEntity
  8
1
390
0
  6
solid
 62
     1
100
AcDbMText
 10
2.961434
 20
-2.161882
 30
0.0
 40
0.1
 41
0.0
 71
     5
 72
     1
  1
{\H0.100000;0.474}
210
0.0
220
0.0
230
1.0
 73
     1
 44
1.0
  0
ENDBLK
  5
C7
100
AcDbEntity
  8
1
390
0
  6
solid
 62
     1
100
AcDbBlockEnd
  0
BLOCK
  5
CA
100
AcDbEntity
  8
1
390
0
  6
solid
 62
     1
100
AcDbBlockBegin
  2
*D18
 70
     0
 10
0.0
 20
0.0
 30
0.0
  3
*D18
  1

  0
LINE
  5
CB
100
AcDbEntity
  8
1
390
0
  6
solid
 62
     1
100
AcDbLine
 10
1.425
 20
-2.591
 30
0.0
 11
2.551724
 21
-2.591
 31
0.0
210
0.0
220
0.0
230
1.0
  0
LINE
  5
CC
100
AcDbEntity
  8
1
390
0
  6
solid
 62
     1
100
AcDbLine
 10
2.551724
 20
-2.591
 30
0.0
 11
2.694864
 21
-2.529561
 31
0.0
210
0.0
220
0.0
230
1.0
  0
LINE
  5
CD
100
AcDbEntity
  8
1
390
0
  6
solid
 62
     1
100
AcDbLine
 10
2.694864
 20
-2.529561
 30
0.0
 11
2.766434
 21
-2.529561
 31
0.0
210
0.0
220
0.0
230
1.0
  0
MTEXT
  5
CE
100
AcDbEntity
  8
1
390
0
  6
solid
 62
     1
100
AcDbMText
 10
2.961434
 20
-2.529561
 30
0.0
 40
0.1
 41
0.0
 71
     5
 72
     1
  1
{\H0.100000;0.284}
210
0.0
220
0.0
230
1.0
 73
     1
 44
1.0
  0
ENDBLK
  5
CF
100
AcDbEntity
  8
1
390
0
  6
solid
 62
     1
100
AcDbBlockEnd
  0
BLOCK
  5
D2
100
AcDbEntity
  8
1
390
0
  6
solid
 62
     1
100
AcDbBlockBegin
  2
*D19
 70
     0
 10
0.0
 20
0.0
 30
0.0
  3
*D19
  1

  0
LINE
  5
D3
100
AcDbEntity
  8
1
390
0
  6
solid
 62
     1
100
AcDbLine
 10
0.0
 20
0.0
 30
0.0
 11
0.0
 21
-0.818217
 31
0.0
210
0.0
220
0.0
230
1.0
  0
MTEXT
  5
D4
100
AcDbEntity
  8
1
390
0
  6
solid
 62
     1
100
AcDbMText
 10
0.0
 20
-1.013217
 30
0.0
 40
0.1
 41
0.0
 71
     5
 72
     1
  1
{\H0.100000;1.750}
210
0.0
220
0.0
230
1.0
 11
0.0
 21
1.0
 31
0.0
 73
     1
 44
1.0
  0
ENDBLK
  5
D5
100
AcDbEntity
  8
1
390
0
  6
solid
 62
     1
100
AcDbBlockEnd
  0
ENDSEC
  0
SECTION
  2
ENTITIES
  0
LINE
  5
28
100
AcDbEntity
  8
1
390
0
  6
solid
 62
     3
100
AcDbLine
 10
-0.375
 20
-2.875
 30
0.0
 11
-2.0
 21
1.5
 31
0.0
  0
LINE
  5
29
100
AcDbEntity
  8
1
390
0
  6
solid
 62
     3
100
AcDbLine
 10
1.75
 20
-2.875
 30
0.0
 11
1.75
 21
-1.75
 31
0.0
  0
LINE
  5
2A
100
AcDbEntity
  8
1
390
0
  6
solid
 62
     3
100
AcDbLine
 10
1.75
 20
-1.75
 30
0.0
 11
0.0
 21
3.5
 31
0.0
  0
LINE
  5
2B
100
AcDbEntity
  8
1
390
0
  6
solid
 62
     3
100
AcDbLine
 10
-2.0
 20
3.5
 30
0.0
 11
0.0
 21
3.5
 31
0.0
  0
LINE
  5
2C
100
AcDbEntity
  8
1
390
0
  6
solid
 62
     3
100
AcDbLine
 10
-0.375
 20
-2.875
 30
0.0
 11
0.425
 21
-2.875
 31
0.0
  0
CIRCLE
  5
2D
100
AcDbEntity
  8
1
390
0
  6
solid
 62
     3
100
AcDbCircle
 10
0.0
 20
0.0
 30
0.0
 40
0.1875
210
0.0
220
0.0
230
1.0
  0
LINE
  5
2E
100
AcDbEntity
  8
1
390
0
  6
solid
 62
     3
100
AcDbLine
 10
-0.155
 20
-2.591
 30
0.0
 11
0.155
 21
-2.591
 31
0.0
  0
LINE
  5
2F
100
AcDbEntity
  8
1
390
0
  6
solid
 62
     3
100
AcDbLine
 10
-0.155
 20
-2.401
 30
0.0
 11
0.155
 21
-2.401
 31
0.0
  0
LINE
  5
30
100
AcDbEntity
  8
1
390
0
  6
solid
 62
     3
100
AcDbLine
 10
1.115
 20
-2.401
 30
0.0
 11
1.425
 21
-2.401
 31
0.0
  0
LINE
  5
31
100
AcDbEntity
  8
1
390
0
  6
solid
 62
     3
100
AcDbLine
 10
1.115
 20
-2.591
 30
0.0
 11
1.425
 21
-2.591
 31
0.0
  0
ARC
  5
32
100
AcDbEntity
  8
1
390
0
  6
solid
 62
     3
100
AcDbCircle
 10
-0.155
 20
-2.496
 30
0.0
 40
0.095
210
0.0
220
0.0
230
1.0
100
AcDbArc
 50
180.0
 51
270.0
  0
ARC
  5
33
100
AcDbEntity
  8
1
390
0
  6
solid
 62
     3
100
AcDbCircle
 10
-0.155
 20
-2.496
 30
0.0
 40
0.095
210
0.0
220
0.0
230
1.0
100
AcDbArc
 50
90.0
 51
180.0
  0
ARC
  5
34
100
AcDbEntity
  8
1
390
0
  6
solid
 62
     3
100
AcDbCircle
 10
0.155
 20
-2.496
 30
0.0
 40
0.095
210
0.0
220
0.0
230
1.0
100
AcDbArc
 50
0.0
 51
90.0
  0
ARC
  5
35
100
AcDbEntity
  8
1
390
0
  6
solid
 62
     3
100
AcDbCircle
 10
0.155
 20
-2.496
 30
0.0
 40
0.095
210
0.0
220
0.0
230
1.0
100
AcDbArc
 50
270.0
 51
360.0
  0
ARC
  5
36
100
AcDbEntity
  8
1
390
0
  6
solid
 62
     3
100
AcDbCircle
 10
1.115
 20
-2.496
 30
0.0
 40
0.095
210
0.0
220
0.0
230
1.0
100
AcDbArc
 50
180.0
 51
270.0
  0
ARC
  5
37
100
AcDbEntity
  8
1
390
0
  6
solid
 62
     3
100
AcDbCircle
 10
1.115
 20
-2.496
 30
0.0
 40
0.095
210
0.0
220
0.0
230
1.0
100
AcDbArc
 50
90.0
 51
180.0
  0
ARC
  5
38
100
AcDbEntity
  8
1
390
0
  6
solid
 62
     3
100
AcDbCircle
 10
1.425
 20
-2.496
 30
0.0
 40
0.095
210
0.0
220
0.0
230
1.0
100
AcDbArc
 50
0.0
 51
90.0
  0
ARC
  5
39
100
AcDbEntity
  8
1
390
0
  6
solid
 62
     3
100
AcDbCircle
 10
1.425
 20
-2.496
 30
0.0
 40
0.095
210
0.0
220
0.0
230
1.0
100
AcDbArc
 50
270.0
 51
360.0
  0
LINE
  5
3A
100
AcDbEntity
  8
1
390
0
  6
solid
 62
     3
100
AcDbLine
 10
0.95
 20
-2.875
 30
0.0
 11
0.95
 21
-2.7575
 31
0.0
  0
LINE
  5
3B
100
AcDbEntity
  8
1
390
0
  6
solid
 62
     3
100
AcDbLine
 10
0.57
 20
-2.875
 30
0.0
 11
0.57
 21
-2.7575
 31
0.0
  0
LINE
  5
3C
100
AcDbEntity
  8
1
390
0
  6
solid
 62
     3
100
AcDbLine
 10
0.805
 20
-2.875
 30
0.0
 11
0.805
 21
-2.7575
 31
0.0
  0
LINE
  5
3D
100
AcDbEntity
  8
1
390
0
  6
solid
 62
     3
100
AcDbLine
 10
0.425
 20
-2.875
 30
0.0
 11
0.425
 21
-2.7575
 31
0.0
  0
LINE
  5
3E
100
AcDbEntity
  8
1
390
0
  6
solid
 62
     3
100
AcDbLine
 10
0.57
 20
-2.875
 30
0.0
 11
0.805
 21
-2.875
 31
0.0
  0
LINE
  5
3F
100
AcDbEntity
  8
1
390
0
  6
solid
 62
     3
100
AcDbLine
 10
0.95
 20
-2.875
 30
0.0
 11
1.75
 21
-2.875
 31
0.0
  0
ARC
  5
40
100
AcDbEntity
  8
1
390
0
  6
solid
 62
     3
100
AcDbCircle
 10
0.4975
 20
-2.7575
 30
0.0
 40
0.0725
210
0.0
220
0.0
230
1.0
100
AcDbArc
 50
90.0
 51
180.0
  0
ARC
  5
41
100
AcDbEntity
  8
1
390
0
  6
solid
 62
     3
100
AcDbCircle
 10
0.4975
 20
-2.7575
 30
0.0
 40
0.0725
210
0.0
220
0.0
230
1.0
100
AcDbArc
 50
0.0
 51
90.0
  0
ARC
  5
42
100
AcDbEntity
  8
1
390
0
  6
solid
 62
     3
100
AcDbCircle
 10
0.8775
 20
-2.7575
 30
0.0
 40
0.0725
210
0.0
220
0.0
230
1.0
100
AcDbArc
 50
90.0
 51
180.0
  0
ARC
  5
43
100
AcDbEntity
  8
1
390
0
  6
solid
 62
     3
100
AcDbCircle
 10
0.8775
 20
-2.7575
 30
0.0
 40
0.0725
210
0.0
220
0.0
230
1.0
100
AcDbArc
 50
0.0
 51
90.0
  0
LINE
  5
44
100
AcDbEntity
  8
1
390
0
  6
solid
 62
     3
100
AcDbLine
 10
-2.0
 20
1.5
 30
0.0
 11
-2.0
 21
3.5
 31
0.0
  0
POINT
  5
45
100
AcDbEntity
  8
1
390
0
  6
solid
 62
     3
100
AcDbPoint
 10
0.0
 20
0.0
 30
0.0
  0
DIMENSION
  5
4B
100
AcDbEntity
  8
1
390
0
  6
solid
 62
     1
100
AcDbDimension
  2
*D0
 10
1.75
 20
-2.875
 30
0.0
 11
2.961434
 21
-2.875
 31
0.0
 70
     6
 71
     5
 72
     1
 41
1.0
 42
0.0
210
0.0
220
0.0
230
1.0
  3
Standard
100
AcDbOrdinateDimension
 13
1.75
 23
-2.875
 33
0.0
 14
2.766434
 24
-2.875
 34
0.0
1001
ACAD
1000
DSTYLE
1002
{
1070
    41
1040
0.07157
1070
    42
1040
0.0
1070
    44
1040
0.05
1070
    47
1040
0.0005
1070
    48
1040
0.0005
1070
    78
1070
     1
1070
   140
1040
0.1
1070
   146
1040
0.5
1070
   271
1070
     3
1070
   272
1070
     3
1070
   284
1070
     1
1002
}
  0
DIMENSION
  5
53
100
AcDbEntity
  8
1
390
0
  6
solid
 62
     1
100
AcDbDimension
  2
*D1
 10
1.75
 20
-2.875
 30
0.0
 11
2.961434
 21
-2.658746
 31
0.0
 70
     6
 71
     5
 72
     1
 41
1.0
 42
0.1175
210
0.0
220
0.0
230
1.0
  3
Standard
100
AcDbOrdinateDimension
 13
0.8775
 23
-2.7575
 33
0.0
 14
2.766434
 24
-2.658746
 34
0.0
1001
ACAD
1000
DSTYLE
1002
{
1070
    41
1040
0.07157
1070
    42
1040
0.0
1070
    44
1040
0.05
1070
    47
1040
0.0005
1070
    48
1040
0.0005
1070
    78
1070
     1
1070
   140
1040
0.1
1070
   146
1040
0.5
1070
   271
1070
     3
1070
   272
1070
     3
1070
   284
1070
     1
1002
}
  0
DIMENSION
  5
5B
100
AcDbEntity
  8
1
390
0
  6
solid
 62
     1
100
AcDbDimension
  2
*D2
 10
1.75
 20
-2.875
 30
0.0
 11
2.961434
 21
-2.390439
 31
0.0
 70
     6
 71
     5
 72
     1
 41
1.0
 42
0.379
210
0.0
220
0.0
230
1.0
  3
Standard
100
AcDbOrdinateDimension
 13
1.425
 23
-2.496
 33
0.0
 14
2.766434
 24
-2.390439
 34
0.0
1001
ACAD
1000
DSTYLE
1002
{
1070
    41
1040
0.07157
1070
    42
1040
0.0
1070
    44
1040
0.05
1070
    47
1040
0.0005
1070
    48
1040
0.0005
1070
    78
1070
     1
1070
   140
1040
0.1
1070
   146
1040
0.5
1070
   271
1070
     3
1070
   272
1070
     3
1070
   284
1070
     1
1002
}
  0
DIMENSION
  5
61
100
AcDbEntity
  8
1
390
0
  6
solid
 62
     1
100
AcDbDimension
  2
*D3
 10
1.75
 20
-2.875
 30
0.0
 11
2.961434
 21
0.0
 31
0.0
 70
     6
 71
     5
 72
     1
 41
1.0
 42
2.875
210
0.0
220
0.0
230
1.0
  3
Standard
100
AcDbOrdinateDimension
 13
0.0
 23
0.0
 33
0.0
 14
2.766434
 24
0.0
 34
0.0
1001
ACAD
1000
DSTYLE
1002
{
1070
    41
1040
0.07157
1070
    42
1040
0.0
1070
    44
1040
0.05
1070
    47
1040
0.0005
1070
    48
1040
0.0005
1070
    78
1070
     1
1070
   140
1040
0.1
1070
   146
1040
0.5
1070
   271
1070
     3
1070
   272
1070
     3
1070
   284
1070
     1
1002
}
  0
DIMENSION
  5
67
100
AcDbEntity
  8
1
390
0
  6
solid
 62
     1
100
AcDbDimension
  2
*D4
 10
1.75
 20
-2.875
 30
0.0
 11
1.75
 21
-3.577035
 31
0.0
 70
    70
 71
     5
 72
     1
 41
1.0
 42
0.0
210
0.0
220
0.0
230
1.0
 53
90.0
  3
Standard
100
AcDbOrdinateDimension
 13
1.75
 23
-2.875
 33
0.0
 14
1.75
 24
-3.382035
 34
0.0
1001
ACAD
1000
DSTYLE
1002
{
1070
    41
1040
0.07157
1070
    42
1040
0.0
1070
    44
1040
0.05
1070
    47
1040
0.0005
1070
    48
1040
0.0005
1070
    73
1070
     0
1070
    74
1070
     0
1070
    78
1070
     1
1070
   140
1040
0.1
1070
   146
1040
0.5
1070
   271
1070
     3
1070
   272
1070
     3
1070
   284
1070
     1
1002
}
  0
DIMENSION
  5
6F
100
AcDbEntity
  8
1
390
0
  6
solid
 62
     1
100
AcDbDimension
  2
*D5
 10
1.75
 20
-2.875
 30
0.0
 11
1.564337
 21
-3.577035
 31
0.0
 70
    70
 71
     5
 72
     1
 41
1.0
 42
0.325
210
0.0
220
0.0
230
1.0
 53
90.0
  3
Standard
100
AcDbOrdinateDimension
 13
1.425
 23
-2.496
 33
0.0
 14
1.564337
 24
-3.382035
 34
0.0
1001
ACAD
1000
DSTYLE
1002
{
1070
    41
1040
0.07157
1070
    42
1040
0.0
1070
    44
1040
0.05
1070
    47
1040
0.0005
1070
    48
1040
0.0005
1070
    73
1070
     0
1070
    74
1070
     0
1070
    78
1070
     1
1070
   140
1040
0.1
1070
   146
1040
0.5
1070
   271
1070
     3
1070
   272
1070
     3
1070
   284
1070
     1
1002
}
  0
DIMENSION
  5
77
100
AcDbEntity
  8
1
390
0
  6
solid
 62
     1
100
AcDbDimension
  2
*D6
 10
1.75
 20
-2.875
 30
0.0
 11
1.296031
 21
-3.577035
 31
0.0
 70
    70
 71
     5
 72
     1
 41
1.0
 42
0.635
210
0.0
220
0.0
230
1.0
 53
90.0
  3
Standard
100
AcDbOrdinateDimension
 13
1.115
 23
-2.496
 33
0.0
 14
1.296031
 24
-3.382035
 34
0.0
1001
ACAD
1000
DSTYLE
1002
{
1070
    41
1040
0.07157
1070
    42
1040
0.0
1070
    44
1040
0.05
1070
    47
1040
0.0005
1070
    48
1040
0.0005
1070
    73
1070
     0
1070
    74
1070
     0
1070
    78
1070
     1
1070
   140
1040
0.1
1070
   146
1040
0.5
1070
   271
1070
     3
1070
   272
1070
     3
1070
   284
1070
     1
1002
}
  0
DIMENSION
  5
7F
100
AcDbEntity
  8
1
390
0
  6
solid
 62
     1
100
AcDbDimension
  2
*D7
 10
1.75
 20
-2.875
 30
0.0
 11
1.067473
 21
-3.577035
 31
0.0
 70
    70
 71
     5
 72
     1
 41
1.0
 42
0.8
210
0.0
220
0.0
230
1.0
 53
90.0
  3
Standard
100
AcDbOrdinateDimension
 13
0.95
 23
-2.875
 33
0.0
 14
1.067473
 24
-3.382035
 34
0.0
1001
ACAD
1000
DSTYLE
1002
{
1070
    41
1040
0.07157
1070
    42
1040
0.0
1070
    44
1040
0.05
1070
    47
1040
0.0005
1070
    48
1040
0.0005
1070
    73
1070
     0
1070
    74
1070
     0
1070
    78
1070
     1
1070
   140
1040
0.1
1070
   146
1040
0.5
1070
   271
1070
     3
1070
   272
1070
     3
1070
   284
1070
     1
1002
}
  0
DIMENSION
  5
85
100
AcDbEntity
  8
1
390
0
  6
solid
 62
     1
100
AcDbDimension
  2
*D8
 10
1.75
 20
-2.875
 30
0.0
 11
0.805
 21
-3.577035
 31
0.0
 70
    70
 71
     5
 72
     1
 41
1.0
 42
0.945
210
0.0
220
0.0
230
1.0
 53
90.0
  3
Standard
100
AcDbOrdinateDimension
 13
0.805
 23
-2.875
 33
0.0
 14
0.805
 24
-3.382035
 34
0.0
1001
ACAD
1000
DSTYLE
1002
{
1070
    41
1040
0.07157
1070
    42
1040
0.0
1070
    44
1040
0.05
1070
    47
1040
0.0005
1070
    48
1040
0.0005
1070
    73
1070
     0
1070
    74
1070
     0
1070
    78
1070
     1
1070
   140
1040
0.1
1070
   146
1040
0.5
1070
   271
1070
     3
1070
   272
1070
     3
1070
   284
1070
     1
1002
}
  0
DIMENSION
  5
8B
100
AcDbEntity
  8
1
390
0
  6
solid
 62
     1
100
AcDbDimension
  2
*D9
 10
1.75
 20
-2.875
 30
0.0
 11
0.57
 21
-3.577035
 31
0.0
 70
    70
 71
     5
 72
     1
 41
1.0
 42
1.18
210
0.0
220
0.0
230
1.0
 53
90.0
  3
Standard
100
AcDbOrdinateDimension
 13
0.57
 23
-2.875
 33
0.0
 14
0.57
 24
-3.382035
 34
0.0
1001
ACAD
1000
DSTYLE
1002
{
1070
    41
1040
0.07157
1070
    42
1040
0.0
1070
    44
1040
0.05
1070
    47
1040
0.0005
1070
    48
1040
0.0005
1070
    73
1070
     0
1070
    74
1070
     0
1070
    78
1070
     1
1070
   140
1040
0.1
1070
   146
1040
0.5
1070
   271
1070
     3
1070
   272
1070
     3
1070
   284
1070
     1
1002
}
  0
DIMENSION
  5
93
100
AcDbEntity
  8
1
390
0
  6
solid
 62
     1
100
AcDbDimension
  2
*D10
 10
1.75
 20
-2.875
 30
0.0
 11
0.361927
 21
-3.577035
 31
0.0
 70
    70
 71
     5
 72
     1
 41
1.0
 42
1.325
210
0.0
220
0.0
230
1.0
 53
90.0
  3
Standard
100
AcDbOrdinateDimension
 13
0.425
 23
-2.875
 33
0.0
 14
0.361927
 24
-3.382035
 34
0.0
1001
ACAD
1000
DSTYLE
1002
{
1070
    41
1040
0.07157
1070
    42
1040
0.0
1070
    44
1040
0.05
1070
    47
1040
0.0005
1070
    48
1040
0.0005
1070
    73
1070
     0
1070
    74
1070
     0
1070
    78
1070
     1
1070
   140
1040
0.1
1070
   146
1040
0.5
1070
   271
1070
     3
1070
   272
1070
     3
1070
   284
1070
     1
1002
}
  0
DIMENSION
  5
99
100
AcDbEntity
  8
1
390
0
  6
solid
 62
     1
100
AcDbDimension
  2
*D11
 10
1.75
 20
-2.875
 30
0.0
 11
-0.375
 21
-3.577035
 31
0.0
 70
    70
 71
     5
 72
     1
 41
1.0
 42
2.125
210
0.0
220
0.0
230
1.0
 53
90.0
  3
Standard
100
AcDbOrdinateDimension
 13
-0.375
 23
-2.875
 33
0.0
 14
-0.375
 24
-3.382035
 34
0.0
1001
ACAD
1000
DSTYLE
1002
{
1070
    41
1040
0.07157
1070
    42
1040
0.0
1070
    44
1040
0.05
1070
    47
1040
0.0005
1070
    48
1040
0.0005
1070
    73
1070
     0
1070
    74
1070
     0
1070
    78
1070
     1
1070
   140
1040
0.1
1070
   146
1040
0.5
1070
   271
1070
     3
1070
   272
1070
     3
1070
   284
1070
     1
1002
}
  0
DIMENSION
  5
9F
100
AcDbEntity
  8
1
390
0
  6
solid
 62
     1
100
AcDbDimension
  2
*D12
 10
1.75
 20
-2.875
 30
0.0
 11
0.155
 21
-3.577035
 31
0.0
 70
    70
 71
     5
 72
     1
 41
1.0
 42
1.595
210
0.0
220
0.0
230
1.0
 53
90.0
  3
Standard
100
AcDbOrdinateDimension
 13
0.155
 23
-2.496
 33
0.0
 14
0.155
 24
-3.382035
 34
0.0
1001
ACAD
1000
DSTYLE
1002
{
1070
    41
1040
0.07157
1070
    42
1040
0.0
1070
    44
1040
0.05
1070
    47
1040
0.0005
1070
    48
1040
0.0005
1070
    73
1070
     0
1070
    74
1070
     0
1070
    78
1070
     1
1070
   140
1040
0.1
1070
   146
1040
0.5
1070
   271
1070
     3
1070
   272
1070
     3
1070
   284
1070
     1
1002
}
  0
DIMENSION
  5
A5
100
AcDbEntity
  8
1
390
0
  6
solid
 62
     1
100
AcDbDimension
  2
*D13
 10
1.75
 20
-2.875
 30
0.0
 11
-0.155
 21
-3.577035
 31
0.0
 70
    70
 71
     5
 72
     1
 41
1.0
 42
1.905
210
0.0
220
0.0
230
1.0
 53
90.0
  3
Standard
100
AcDbOrdinateDimension
 13
-0.155
 23
-2.496
 33
0.0
 14
-0.155
 24
-3.382035
 34
0.0
1001
ACAD
1000
DSTYLE
1002
{
1070
    41
1040
0.07157
1070
    42
1040
0.0
1070
    44
1040
0.05
1070
    47
1040
0.0005
1070
    48
1040
0.0005
1070
    73
1070
     0
1070
    74
1070
     0
1070
    78
1070
     1
1070
   140
1040
0.1
1070
   146
1040
0.5
1070
   271
1070
     3
1070
   272
1070
     3
1070
   284
1070
     1
1002
}
  0
DIMENSION
  5
AE
100
AcDbEntity
  8
1
390
0
  6
solid
 62
     1
100
AcDbDimension
  2
*D14
 10
0.076788
 20
-0.171055
 30
0.0
 11
-0.731174
 21
0.630493
 31
0.0
 70
     3
 71
     5
 72
     1
 41
1.0
 42
0.375
210
0.0
220
0.0
230
1.0
  3
Standard
100
AcDbDiametricDimension
 15
-0.076788
 25
0.171055
 35
0.0
 40
0.0
1001
ACAD
1000
DSTYLE
1002
{
1070
    41
1040
0.1
1070
    42
1040
0.1
1070
    44
1040
0.05
1070
    47
1040
0.0005
1070
    48
1040
0.0005
1070
    75
1070
     1
1070
    76
1070
     1
1070
    78
1070
     1
1070
   140
1040
0.1
1070
   146
1040
0.5
1070
   271
1070
     3
1070
   272
1070
     3
1070
   284
1070
     1
1002
}
  0
DIMENSION
  5
B7
100
AcDbEntity
  8
1
390
0
  6
solid
 62
     1
100
AcDbDimension
  2
*D15
 10
-0.067661
 20
-2.533376
 30
0.0
 11
-1.267787
 21
-2.211568
 31
0.0
 70
     3
 71
     5
 72
     1
 41
1.0
 42
0.19
210
0.0
220
0.0
230
1.0
  3
Standard
100
AcDbDiametricDimension
 15
-0.242339
 25
-2.458624
 35
0.0
 40
0.0
1001
ACAD
1000
DSTYLE
1002
{
1070
    41
1040
0.1
1070
    42
1040
0.1
1070
    44
1040
0.05
1070
    47
1040
0.0005
1070
    48
1040
0.0005
1070
    75
1070
     1
1070
    76
1070
     1
1070
    78
1070
     1
1070
   140
1040
0.1
1070
   146
1040
0.5
1070
   271
1070
     3
1070
   272
1070
     3
1070
   284
1070
     1
1002
}
  0
DIMENSION
  5
C0
100
AcDbEntity
  8
1
390
0
  6
solid
 62
     1
100
AcDbDimension
  2
*D16
 10
0.4975
 20
-2.83
 30
0.0
 11
0.85879
 21
-2.002886
 31
0.0
 70
     3
 71
     5
 72
     1
 41
1.0
 42
0.145
210
0.0
220
0.0
230
1.0
  3
Standard
100
AcDbDiametricDimension
 15
0.4975
 25
-2.685
 35
0.0
 40
0.0
1001
ACAD
1000
DSTYLE
1002
{
1070
    41
1040
0.1
1070
    42
1040
0.1
1070
    44
1040
0.05
1070
    47
1040
0.0005
1070
    48
1040
0.0005
1070
    75
1070
     1
1070
    76
1070
     1
1070
    78
1070
     1
1070
   140
1040
0.1
1070
   146
1040
0.5
1070
   271
1070
     3
1070
   272
1070
     3
1070
   284
1070
     1
1002
}
  0
DIMENSION
  5
C8
100
AcDbEntity
  8
1
390
0
  6
solid
 62
     1
100
AcDbDimension
  2
*D17
 10
1.75
 20
-2.875
 30
0.0
 11
2.961434
 21
-2.161882
 31
0.0
 70
     6
 71
     5
 72
     1
 41
1.0
 42
0.474
210
0.0
220
0.0
230
1.0
  3
Standard
100
AcDbOrdinateDimension
 13
1.425
 23
-2.401
 33
0.0
 14
2.766434
 24
-2.161882
 34
0.0
1001
ACAD
1000
DSTYLE
1002
{
1070
    41
1040
0.07157
1070
    42
1040
0.0
1070
    44
1040
0.05
1070
    47
1040
0.0005
1070
    48
1040
0.0005
1070
    78
1070
     1
1070
   140
1040
0.1
1070
   146
1040
0.5
1070
   271
1070
     3
1070
   272
1070
     3
1070
   284
1070
     1
1002
}
  0
DIMENSION
  5
D0
100
AcDbEntity
  8
1
390
0
  6
solid
 62
     1
100
AcDbDimension
  2
*D18
 10
1.75
 20
-2.875
 30
0.0
 11
2.961434
 21
-2.529561
 31
0.0
 70
     6
 71
     5
 72
     1
 41
1.0
 42
0.284
210
0.0
220
0.0
230
1.0
  3
Standard
100
AcDbOrdinateDimension
 13
1.425
 23
-2.591
 33
0.0
 14
2.766434
 24
-2.529561
 34
0.0
1001
ACAD
1000
DSTYLE
1002
{
1070
    41
1040
0.07157
1070
    42
1040
0.0
1070
    44
1040
0.05
1070
    47
1040
0.0005
1070
    48
1040
0.0005
1070
    78
1070
     1
1070
   140
1040
0.1
1070
   146
1040
0.5
1070
   271
1070
     3
1070
   272
1070
     3
1070
   284
1070
     1
1002
}
  0
DIMENSION
  5
D6
100
AcDbEntity
  8
1
390
0
  6
solid
 62
     1
100
AcDbDimension
  2
*D19
 10
1.75
 20
-2.875
 30
0.0
 11
0.0
 21
-1.013217
 31
0.0
 70
    70
 71
     5
 72
     1
 41
1.0
 42
1.75
210
0.0
220
0.0
230
1.0
 53
90.0
  3
Standard
100
AcDbOrdinateDimension
 13
0.0
 23
0.0
 33
0.0
 14
0.0
 24
-0.818217
 34
0.0
1001
ACAD
1000
DSTYLE
1002
{
1070
    41
1040
0.07157
1070
    42
1040
0.0
1070
    44
1040
0.05
1070
    47
1040
0.0005
1070
    48
1040
0.0005
1070
    73
1070
     0
1070
    74
1070
     0
1070
    78
1070
     1
1070
   140
1040
0.1
1070
   146
1040
0.5
1070
   271
1070
     3
1070
   272
1070
     3
1070
   284
1070
     1
1002
}
  0
ENDSEC
  0
SECTION
  2
OBJECTS
  0
DICTIONARY
  5
19
100
AcDbDictionary
280
     0
281
     1
  3
ACAD_GROUP
350
1A
  3
ACAD_MLINESTYLE
350
1B
  3
ACAD_LAYOUT
350
1E
  3
ACAD_PLOTSETTINGS
350
22
  3
ACAD_PLOTSTYLENAME
350
1F
  3
ACAD_WIPEOUT_VARS
350
23
  0
DICTIONARY
  5
1A
102
{ACAD_REACTORS
330
19
102
}
100
AcDbDictionary
280
     0
281
     1
  0
DICTIONARY
  5
1B
102
{ACAD_REACTORS
330
19
102
}
100
AcDbDictionary
280
     0
281
     1
  3
Standard
350
1C
  0
MLINESTYLE
  5
1C
102
{ACAD_REACTORS
330
1B
102
}
100
AcDbMlineStyle
  2
Standard
 70
     0
  3

 62
     0
 51
90.0
 52
90.0
 71
     2
 49
0.5
 62
   256
  6
ByLayer
 49
-0.5
 62
   256
  6
ByLayer
  0
ACDBDICTIONARYWDFLT
  5
1F
102
{ACAD_REACTORS
330
19
102
}
100
AcDbDictionary
281
     1
  3
Normal
350
1D
100
AcDbDictionaryWithDefault
340
1D
  0
ACDBPLACEHOLDER
  5
1D
102
{ACAD_REACTORS
330
1F
102
}
  0
LAYOUT
  5
20
102
{ACAD_REACTORS
330
1E
102
}
100
AcDbPlotSettings
  1

  2

  4

  6

 40
0.0
 41
0.0
 42
0.0
 43
0.0
 44
0.0
 45
0.0
 46
0.0
 47
0.0
 48
0.0
 49
0.0
140
0.0
141
0.0
142
1.0
143
1.0
 70
  1024
 72
     0
 73
     0
 74
     0
  7

 75
     0
147
1.0
148
0.0
149
0.0
100
AcDbLayout
  1
Model
 70
     0
 71
     0
 10
0.0
 20
0.0
 11
0.0
 21
0.0
 12
0.0
 22
0.0
 32
0.0
 14
0.0
 24
0.0
 34
0.0
 15
0.0
 25
0.0
 35
0.0
146
0.0
 13
0.0
 23
0.0
 33
0.0
 16
0.0
 26
0.0
 36
0.0
 17
0.0
 27
0.0
 37
0.0
 76
     0
330
A
331
0
345
0
346
0
  0
LAYOUT
  5
21
102
{ACAD_REACTORS
330
1E
102
}
100
AcDbPlotSettings
  1

  2

  4

  6

 40
0.0
 41
0.0
 42
0.0
 43
0.0
 44
0.0
 45
0.0
 46
0.0
 47
0.0
 48
0.0
 49
0.0
140
0.0
141
0.0
142
1.0
143
1.0
 70
     0
 72
     0
 73
     0
 74
     0
  7

 75
     0
147
1.0
148
0.0
149
0.0
100
AcDbLayout
  1
Layout1
 70
     0
 71
     0
 10
0.0
 20
0.0
 11
0.0
 21
0.0
 12
0.0
 22
0.0
 32
0.0
 14
0.0
 24
0.0
 34
0.0
 15
0.0
 25
0.0
 35
0.0
146
0.0
 13
0.0
 23
0.0
 33
0.0
 16
0.0
 26
0.0
 36
0.0
 17
0.0
 27
0.0
 37
0.0
 76
     0
330
B
331
0
345
0
346
0
  0
DICTIONARY
  5
1E
102
{ACAD_REACTORS
330
19
102
}
100
AcDbDictionary
280
     0
281
     1
  3
Layout1
350
21
  3
Model
350
20
  0
DICTIONARY
  5
22
102
{ACAD_REACTORS
330
19
102
}
100
AcDbDictionary
280
     0
281
     1
  0
WIPEOUTVARIABLES
  5
23
100
AcDbWipeoutVariables
 70
     1
  0
ENDSEC
  0
EOF
